osu file format v14

[General]
AudioFilename: Nikorinpana - After School NAVIGATORS.mp3
AudioLeadIn: 1500
PreviewTime: 82080
Countdown: 1
SampleSet: None
StackLeniency: 0.7
Mode: 0
LetterboxInBreaks: 1
WidescreenStoryboard: 1

[Editor]
Bookmarks: 140049
DistanceSpacing: 1.3
BeatDivisor: 4
GridSize: 16
TimelineZoom: 4.339998

[Metadata]
Title:After School NAVIGATORS
TitleUnicode:After School NAVIGATORS
Artist:Nikorinpana
ArtistUnicode:にこりんぱな
Creator:ek332bsv
Version:ek
Source:Love Live! School idol project
Tags:u's Yazawa Niko Nico Hoshizora Rin Koizumi Hanayo School Idol Project
BeatmapID:624021
BeatmapSetID:275069

[Difficulty]
HPDrainRate:7
CircleSize:4
OverallDifficulty:8
ApproachRate:10
SliderMultiplier:1.8
SliderTickRate:2

[Events]
//Background and Video events
0,0,"Love Live Nicorinpana.png",0,0
//Break Periods
2,249449,253974
//Storyboard Layer 0 (Background)
//Storyboard Layer 1 (Fail)
//Storyboard Layer 2 (Pass)
//Storyboard Layer 3 (Foreground)
//Storyboard Sound Samples

[TimingPoints]
559,300,4,2,0,75,1,0
19759,-83.3333333333333,4,1,0,75,0,0
20509,-83.3333333333333,4,2,0,75,0,0
22159,-83.3333333333333,4,1,0,75,0,0
22909,-83.3333333333333,4,2,0,75,0,0
24559,-83.3333333333333,4,1,0,75,0,0
25309,-83.3333333333333,4,2,0,75,0,0
26359,-83.3333333333333,4,1,0,75,0,0
26959,-83.3333333333333,4,1,0,75,0,0
39259,-133.333333333333,4,2,0,75,0,0
41359,-83.3333333333333,4,1,0,75,0,0
41659,-100,4,1,0,75,0,0
41959,-83.3333333333333,4,1,0,75,0,0
50809,-133.333333333333,4,1,0,75,0,0
51109,-83.3333333333333,4,1,0,75,0,0
52009,-133.333333333333,4,1,0,75,0,0
52309,-83.3333333333333,4,1,0,75,0,0
57409,-133.333333333333,4,1,0,75,0,0
57709,-83.3333333333333,4,1,0,75,0,0
62959,-100,4,1,0,75,0,0
70159,-83.3333333333333,4,1,0,75,0,0
72559,-83.3333333333333,4,1,0,75,0,0
74209,-133.333333333333,4,1,0,75,0,0
74809,-83.3333333333333,4,1,0,75,0,0
82159,-83.3333333333333,4,1,0,75,0,1
110961,303.030303030303,4,1,0,75,1,0
120051,-133.333333333333,4,1,0,75,0,0
120354,-133.333333333333,4,2,0,75,0,0
129748,-133.333333333333,4,1,0,75,0,0
130354,-133.333333333333,4,2,0,75,0,0
134597,-133.333333333333,4,1,0,75,0,0
140049,300,4,2,0,75,1,0
143649,-100,4,1,0,75,0,0
143724,-100,4,2,0,75,0,0
144699,-100,4,1,0,75,0,0
144849,-100,4,2,0,75,0,0
145449,-100,4,1,0,75,0,0
146124,-100,4,2,0,75,0,0
147699,-100,4,1,0,75,0,0
147849,-100,4,2,0,75,0,0
148449,-83.3333333333333,4,1,0,75,0,0
149049,-83.3333333333333,4,2,0,75,0,0
150699,-83.3333333333333,4,1,0,75,0,0
151449,-83.3333333333333,4,2,0,75,0,0
153249,-83.3333333333333,4,1,0,75,0,0
158049,-83.3333333333333,4,1,0,75,0,0
218049,-83.3333333333333,4,1,0,75,0,1
249249,-100,4,1,0,75,0,0
254424,375,4,1,0,75,1,0

[HitObjects]
256,192,559,5,0,0:0:0:0:
192,160,859,1,0,0:0:0:0:
128,128,1159,1,0,0:0:0:0:
256,336,1459,5,0,0:0:0:0:
256,32,1759,1,0,0:0:0:0:
256,336,2059,1,0,0:0:0:0:
256,192,2359,5,0,0:0:0:0:
320,144,2659,1,0,0:0:0:0:
384,96,2959,1,0,0:0:0:0:
256,32,3259,1,0,0:0:0:0:
256,192,3559,1,0,0:0:0:0:
192,32,3859,1,0,0:0:0:0:
256,192,4159,1,0,0:0:0:0:
128,32,4459,1,0,0:0:0:0:
64,32,4759,1,0,0:0:0:0:
256,192,5059,1,0,0:0:0:0:
256,256,5359,1,0,0:0:0:0:
320,224,5659,1,0,0:0:0:0:
192,224,5959,1,0,0:0:0:0:
368,160,6259,1,0,0:0:0:0:
144,160,6559,1,0,0:0:0:0:
128,48,6859,1,0,0:0:0:0:
128,192,7159,1,0,0:0:0:0:
128,336,7459,1,0,0:0:0:0:
256,48,7759,1,0,0:0:0:0:
256,192,8059,1,0,0:0:0:0:
464,320,8359,1,0,0:0:0:0:
256,336,8659,1,0,0:0:0:0:
112,48,8959,1,0,0:0:0:0:
112,192,9259,1,0,0:0:0:0:
112,336,9559,1,0,0:0:0:0:
192,192,9859,1,0,0:0:0:0:
256,128,10159,1,0,0:0:0:0:
256,256,10459,1,0,0:0:0:0:
320,64,10759,1,0,0:0:0:0:
320,320,11059,1,0,0:0:0:0:
256,32,11359,1,0,0:0:0:0:
480,32,11659,1,0,0:0:0:0:
480,192,11959,1,0,0:0:0:0:
480,336,12259,1,0,0:0:0:0:
256,352,12559,1,0,0:0:0:0:
32,352,12859,1,0,0:0:0:0:
32,192,13159,1,0,0:0:0:0:
32,32,13459,1,0,0:0:0:0:
256,32,13759,1,0,0:0:0:0:
128,240,14059,1,0,0:0:0:0:
48,208,14359,1,0,0:0:0:0:
320,96,14659,1,0,0:0:0:0:
256,352,14959,1,0,0:0:0:0:
48,48,15259,1,0,0:0:0:0:
464,32,15559,1,0,0:0:0:0:
464,336,15859,1,0,0:0:0:0:
64,336,16159,1,0,0:0:0:0:
176,240,16459,1,0,0:0:0:0:
432,192,16759,1,0,0:0:0:0:
112,48,17059,1,0,0:0:0:0:
352,288,17359,1,0,0:0:0:0:
320,96,17659,1,0,0:0:0:0:
64,272,17959,1,0,0:0:0:0:
208,112,18259,1,0,0:0:0:0:
208,176,18559,1,0,0:0:0:0:
208,240,18859,1,0,0:0:0:0:
208,304,19159,1,0,0:0:0:0:
208,48,19459,1,0,0:0:0:0:
208,176,19759,1,0,0:0:0:0:
256,32,20509,5,0,0:0:0:0:
304,96,20659,1,0,0:0:0:0:
208,128,20809,1,0,0:0:0:0:
336,176,20959,1,0,0:0:0:0:
192,208,21109,1,0,0:0:0:0:
368,256,21259,1,0,0:0:0:0:
192,208,21409,1,0,0:0:0:0:
336,176,21559,1,0,0:0:0:0:
208,128,21709,1,0,0:0:0:0:
304,96,21859,1,0,0:0:0:0:
256,32,22009,1,0,0:0:0:0:
80,64,22159,5,0,0:0:0:0:
80,80,22234,1,0,0:0:0:0:
80,96,22309,1,0,0:0:0:0:
80,192,22609,1,0,0:0:0:0:
256,352,22909,5,0,0:0:0:0:
304,288,23059,1,0,0:0:0:0:
208,240,23209,1,0,0:0:0:0:
352,192,23359,1,0,0:0:0:0:
160,144,23509,1,0,0:0:0:0:
400,96,23659,1,0,0:0:0:0:
112,64,23809,1,0,0:0:0:0:
208,80,23959,1,0,0:0:0:0:
208,96,24034,1,0,0:0:0:0:
272,80,24259,1,0,0:0:0:0:
272,96,24334,1,0,0:0:0:0:
336,64,24559,5,0,0:0:0:0:
336,80,24634,1,0,0:0:0:0:
336,96,24709,1,0,0:0:0:0:
272,176,25009,1,0,0:0:0:0:
96,160,25309,5,0,0:0:0:0:
144,224,25459,1,0,0:0:0:0:
192,128,25609,1,0,0:0:0:0:
240,256,25759,1,0,0:0:0:0:
304,96,25909,1,0,0:0:0:0:
352,288,26059,1,0,0:0:0:0:
400,48,26209,1,0,0:0:0:0:
400,144,26359,5,0,0:0:0:0:
384,144,26434,1,0,0:0:0:0:
368,144,26509,1,0,0:0:0:0:
352,144,26584,1,0,0:0:0:0:
336,144,26659,1,0,0:0:0:0:
320,144,26734,1,0,0:0:0:0:
304,144,26809,1,0,0:0:0:0:
288,144,26884,1,0,0:0:0:0:
224,144,26959,6,0,B|224:272|224:272|224:256,1,107.999996704102,,,0:0:0:0:
224,80,27259,1,0,0:0:0:0:
224,80,27409,2,0,L|224:208,1,107.999996704102,,,0:0:0:0:
224,16,27709,1,0,0:0:0:0:
224,208,28009,2,0,L|224:64,1,107.999996704102,,,0:0:0:0:
224,272,28309,1,0,0:0:0:0:
224,272,28459,2,0,L|224:144,1,107.999996704102,,,0:0:0:0:
224,336,28759,1,0,0:0:0:0:
224,96,29059,5,0,0:0:0:0:
320,96,29359,5,0,0:0:0:0:
320,112,29434,1,0,0:0:0:0:
320,128,29509,1,0,0:0:0:0:
320,256,29659,5,0,0:0:0:0:
320,240,29734,1,0,0:0:0:0:
320,224,29809,1,0,0:0:0:0:
384,96,29959,5,0,0:0:0:0:
384,112,30034,1,0,0:0:0:0:
384,128,30109,1,0,0:0:0:0:
384,256,30259,5,0,0:0:0:0:
384,240,30334,1,0,0:0:0:0:
384,224,30409,1,0,0:0:0:0:
480,176,30559,5,0,0:0:0:0:
464,176,30634,1,0,0:0:0:0:
448,176,30709,1,0,0:0:0:0:
224,176,30859,5,0,0:0:0:0:
160,176,31009,5,0,0:0:0:0:
128,176,31084,1,0,0:0:0:0:
112,176,31159,1,0,0:0:0:0:
112,240,31309,5,0,0:0:0:0:
112,304,31459,5,0,0:0:0:0:
192,96,31759,5,0,0:0:0:0:
192,112,31834,1,0,0:0:0:0:
192,128,31909,1,0,0:0:0:0:
192,256,32059,5,0,0:0:0:0:
192,240,32134,1,0,0:0:0:0:
192,224,32209,1,0,0:0:0:0:
128,96,32359,5,0,0:0:0:0:
128,112,32434,1,0,0:0:0:0:
128,128,32509,1,0,0:0:0:0:
128,256,32659,5,0,0:0:0:0:
128,240,32734,1,0,0:0:0:0:
128,224,32809,1,0,0:0:0:0:
256,176,32959,5,0,0:0:0:0:
304,176,33109,5,0,0:0:0:0:
320,176,33184,1,0,0:0:0:0:
336,176,33259,1,0,0:0:0:0:
384,176,33409,5,0,0:0:0:0:
384,112,33559,1,0,0:0:0:0:
384,240,33709,1,0,0:0:0:0:
384,48,33859,1,0,0:0:0:0:
384,304,34009,5,0,0:0:0:0:
96,48,34309,5,0,0:0:0:0:
112,48,34384,1,0,0:0:0:0:
128,48,34459,1,0,0:0:0:0:
288,48,34609,5,0,0:0:0:0:
272,48,34684,1,0,0:0:0:0:
256,48,34759,1,0,0:0:0:0:
96,112,34909,1,0,0:0:0:0:
112,112,34984,1,0,0:0:0:0:
128,112,35059,1,0,0:0:0:0:
288,112,35209,5,0,0:0:0:0:
272,112,35284,1,0,0:0:0:0:
256,112,35359,1,0,0:0:0:0:
240,112,35434,1,0,0:0:0:0:
192,192,35659,5,0,0:0:0:0:
256,240,35809,1,0,0:0:0:0:
144,272,35959,1,0,0:0:0:0:
320,304,36109,1,0,0:0:0:0:
112,352,36259,1,0,0:0:0:0:
320,304,36409,1,0,0:0:0:0:
368,96,36859,5,0,0:0:0:0:
48,48,37159,5,0,0:0:0:0:
160,192,37309,1,0,0:0:0:0:
336,192,37459,1,0,0:0:0:0:
464,352,37609,1,0,0:0:0:0:
256,192,38059,5,0,0:0:0:0:
464,32,38359,5,0,0:0:0:0:
336,192,38509,1,0,0:0:0:0:
176,192,38659,1,0,0:0:0:0:
48,336,38809,5,0,0:0:0:0:
256,192,38959,1,0,0:0:0:0:
176,96,43909,6,0,L|176:208,1,107.999996704102,0|0,0:0|0:0,0:0:0:0:
176,32,44209,1,0,0:0:0:0:
176,272,44359,1,0,0:0:0:0:
240,96,44509,1,0,0:0:0:0:
112,272,44659,1,0,0:0:0:0:
240,272,44809,1,0,0:0:0:0:
112,96,44959,1,0,0:0:0:0:
176,192,45109,1,0,0:0:0:0:
176,352,45259,5,0,0:0:0:0:
304,192,45409,2,0,L|304:320,1,107.999996704102,0|0,0:0|0:0,0:0:0:0:
304,128,45709,1,0,0:0:0:0:
304,368,45859,1,0,0:0:0:0:
224,160,46309,5,0,0:0:0:0:
288,224,46459,1,0,0:0:0:0:
288,160,46609,1,0,0:0:0:0:
224,224,46759,1,0,0:0:0:0:
176,112,46909,5,0,0:0:0:0:
336,272,47059,1,0,0:0:0:0:
336,112,47209,1,0,0:0:0:0:
176,288,47359,2,0,L|64:288,1,107.999996704102,,,0:0:0:0:
240,288,47659,1,0,0:0:0:0:
96,288,47809,2,0,B|30:261|-2:186|24:115|78:82,1,215.999993408203,,,0:0:0:0:
112,112,48184,5,0,0:0:0:0:
144,160,48259,1,0,0:0:0:0:
176,112,48334,1,0,0:0:0:0:
208,160,48409,1,0,0:0:0:0:
352,160,48709,5,0,0:0:0:0:
160,224,48859,2,0,L|272:224,1,107.999996704102,,,0:0:0:0:
160,288,49159,1,0,0:0:0:0:
352,32,49309,1,0,0:0:0:0:
160,352,49459,1,0,0:0:0:0:
352,224,49609,1,0,0:0:0:0:
160,160,49759,1,0,0:0:0:0:
352,288,49909,1,0,0:0:0:0:
160,96,50059,5,0,0:0:0:0:
352,352,50209,2,0,B|256:352|224:352|240:352,1,107.999996704102,,,0:0:0:0:
256,192,50509,1,0,0:0:0:0:
256,352,50809,2,0,L|160:256,1,135.000005149842,,,0:0:0:0:
160,256,51259,1,0,0:0:0:0:
256,352,51409,1,0,0:0:0:0:
112,208,51559,1,0,0:0:0:0:
304,304,51709,1,0,0:0:0:0:
112,208,51859,5,0,0:0:0:0:
336,240,52009,2,0,L|336:80,1,135.000005149842,,,0:0:0:0:
336,304,52459,1,0,0:0:0:0:
336,48,52609,1,0,0:0:0:0:
272,304,52759,1,0,0:0:0:0:
400,48,52909,1,0,0:0:0:0:
304,240,53059,1,0,0:0:0:0:
368,112,53209,1,0,0:0:0:0:
256,192,53509,5,0,0:0:0:0:
256,96,53659,1,0,0:0:0:0:
256,192,53809,1,0,0:0:0:0:
352,192,53959,1,0,0:0:0:0:
160,192,54109,1,0,0:0:0:0:
160,192,54259,1,0,0:0:0:0:
160,288,54409,1,0,0:0:0:0:
160,192,54559,1,0,0:0:0:0:
64,192,54709,1,0,0:0:0:0:
160,192,54859,1,0,0:0:0:0:
160,96,55009,6,0,L|160:208,1,107.999996704102,,,0:0:0:0:
256,192,55309,2,0,L|144:192,1,107.999996704102,,,0:0:0:0:
336,192,55609,1,0,0:0:0:0:
256,192,55909,5,0,0:0:0:0:
384,192,56059,1,0,0:0:0:0:
256,192,56209,5,0,0:0:0:0:
128,192,56359,1,0,0:0:0:0:
256,192,56509,5,0,0:0:0:0:
448,192,56659,1,0,0:0:0:0:
256,192,56809,5,0,0:0:0:0:
64,192,56959,1,0,0:0:0:0:
256,256,57109,6,0,L|256:112,1,107.999996704102,,,0:0:0:0:
256,320,57409,6,0,L|256:160,1,135.000005149842,,,0:0:0:0:
256,112,58309,5,0,0:0:0:0:
192,288,58459,1,0,0:0:0:0:
320,288,58609,1,0,0:0:0:0:
192,112,58759,1,0,0:0:0:0:
320,112,58909,1,0,0:0:0:0:
128,288,59059,1,0,0:0:0:0:
384,288,59209,1,0,0:0:0:0:
256,48,59359,1,0,0:0:0:0:
256,288,59509,1,0,0:0:0:0:
480,192,59809,6,0,L|368:192,1,107.999996704102,,,0:0:0:0:
32,192,60109,6,0,L|144:192,1,107.999996704102,,,0:0:0:0:
256,352,60409,6,0,L|256:208,1,107.999996704102,,,0:0:0:0:
256,176,60709,1,0,0:0:0:0:
320,352,60859,1,0,0:0:0:0:
256,112,61009,1,0,0:0:0:0:
192,352,61159,6,0,L|192:224,1,107.999996704102,,,0:0:0:0:
192,244,61459,1,0,0:0:0:0:
384,256,61609,2,0,L|160:256,1,215.999993408203,,,0:0:0:0:
448,256,62059,2,0,L|448:128,1,107.999996704102,,,0:0:0:0:
256,192,62359,2,0,B|240:103|121:68|42:157|62:248|121:284,1,323.999990112305,,,0:0:0:0:
256,96,62959,1,0,0:0:0:0:
256,112,63034,1,0,0:0:0:0:
256,128,63109,1,0,0:0:0:0:
256,256,63259,1,0,0:0:0:0:
256,32,63409,1,0,0:0:0:0:
256,320,63559,1,0,0:0:0:0:
256,192,64009,6,0,L|256:64,1,90,,,0:0:0:0:
336,96,64309,1,0,0:0:0:0:
176,96,64459,1,0,0:0:0:0:
384,160,64609,1,0,0:0:0:0:
128,160,64759,1,0,0:0:0:0:
256,256,64909,1,0,0:0:0:0:
256,96,65059,6,0,L|256:192,1,90,,,0:0:0:0:
256,320,65359,1,0,0:0:0:0:
256,304,65434,1,0,0:0:0:0:
256,288,65509,1,0,0:0:0:0:
256,192,65659,1,0,0:0:0:0:
256,176,65809,1,0,0:0:0:0:
256,96,65959,1,0,0:0:0:0:
192,128,66259,1,0,0:0:0:0:
336,240,66409,6,0,L|336:128,1,90,,,0:0:0:0:
192,224,66709,1,0,0:0:0:0:
128,64,66859,1,0,0:0:0:0:
384,304,67009,1,0,0:0:0:0:
368,80,67159,1,0,0:0:0:0:
128,288,67309,1,0,0:0:0:0:
256,208,67459,2,0,L|256:384,1,135,,,0:0:0:0:
256,48,67909,5,0,0:0:0:0:
80,320,68059,1,0,0:0:0:0:
448,336,68209,1,0,0:0:0:0:
256,192,68359,1,0,0:0:0:0:
160,192,68659,6,0,L|256:192,1,90,,,0:0:0:0:
256,96,68959,6,0,L|256:208,1,90,,,0:0:0:0:
256,192,69259,5,0,0:0:0:0:
352,192,69409,6,0,L|240:192,1,90,,,0:0:0:0:
256,192,69709,5,0,0:0:0:0:
256,288,69859,6,0,L|256:192,1,90,,,0:0:0:0:
256,16,70159,6,0,L|256:240,1,215.999993408203,,,0:0:0:0:
160,288,70609,1,0,0:0:0:0:
352,288,70759,1,0,0:0:0:0:
352,112,70909,1,0,0:0:0:0:
160,112,71059,1,0,0:0:0:0:
256,192,71209,1,0,0:0:0:0:
384,352,71359,5,0,0:0:0:0:
256,192,71509,1,0,0:0:0:0:
416,48,71659,5,0,0:0:0:0:
256,192,71809,1,0,0:0:0:0:
48,128,71959,5,0,0:0:0:0:
128,192,72559,5,0,0:0:0:0:
384,192,72709,1,0,0:0:0:0:
256,272,72859,1,0,0:0:0:0:
256,288,72934,1,0,0:0:0:0:
256,304,73009,1,0,0:0:0:0:
256,64,73159,1,0,0:0:0:0:
256,80,73234,1,0,0:0:0:0:
256,96,73309,1,0,0:0:0:0:
400,64,73459,5,0,0:0:0:0:
256,192,73609,1,0,0:0:0:0:
256,176,73684,1,0,0:0:0:0:
256,160,73759,1,0,0:0:0:0:
256,320,73909,1,0,0:0:0:0:
128,64,74059,1,0,0:0:0:0:
128,128,74209,1,0,0:0:0:0:
192,64,74359,5,0,0:0:0:0:
192,80,74434,1,0,0:0:0:0:
192,96,74509,1,0,0:0:0:0:
256,64,74659,5,0,0:0:0:0:
256,80,74734,1,0,0:0:0:0:
256,96,74809,1,0,0:0:0:0:
416,192,74959,1,0,0:0:0:0:
112,192,75109,1,0,0:0:0:0:
416,128,75259,5,0,0:0:0:0:
400,128,75334,1,0,0:0:0:0:
384,128,75409,1,0,0:0:0:0:
416,64,75559,5,0,0:0:0:0:
400,64,75634,1,0,0:0:0:0:
384,64,75709,1,0,0:0:0:0:
176,192,75859,1,0,0:0:0:0:
416,256,76009,5,0,0:0:0:0:
400,256,76084,1,0,0:0:0:0:
384,256,76159,1,0,0:0:0:0:
416,320,76309,1,0,0:0:0:0:
352,320,76459,1,0,0:0:0:0:
416,192,76609,5,0,0:0:0:0:
400,192,76684,1,0,0:0:0:0:
384,192,76759,1,0,0:0:0:0:
256,192,76909,5,0,0:0:0:0:
272,192,76984,1,0,0:0:0:0:
288,192,77059,1,0,0:0:0:0:
96,192,77359,5,0,0:0:0:0:
96,112,77509,1,0,0:0:0:0:
176,112,77659,1,0,0:0:0:0:
176,192,77809,1,0,0:0:0:0:
432,112,77959,5,0,0:0:0:0:
352,112,78109,1,0,0:0:0:0:
352,192,78259,1,0,0:0:0:0:
432,192,78409,1,0,0:0:0:0:
256,16,78559,5,0,0:0:0:0:
256,352,78709,1,0,0:0:0:0:
304,64,78859,1,0,0:0:0:0:
208,304,79009,1,0,0:0:0:0:
352,112,79159,5,0,0:0:0:0:
160,256,79309,1,0,0:0:0:0:
288,144,79459,1,0,0:0:0:0:
208,208,79609,1,0,0:0:0:0:
288,224,79759,1,0,0:0:0:0:
208,128,79909,1,0,0:0:0:0:
336,272,80059,1,0,0:0:0:0:
144,80,80209,1,0,0:0:0:0:
400,64,80359,5,0,0:0:0:0:
96,304,80509,1,0,0:0:0:0:
416,320,80659,5,0,0:0:0:0:
80,32,80809,1,0,0:0:0:0:
256,176,80959,1,0,0:0:0:0:
208,112,81109,5,0,0:0:0:0:
336,192,81259,5,0,0:0:0:0:
208,256,81409,5,0,0:0:0:0:
176,192,81559,5,0,0:0:0:0:
304,112,81709,5,0,0:0:0:0:
304,256,81859,5,0,0:0:0:0:
256,176,82009,5,0,0:0:0:0:
256,64,82159,5,0,0:0:0:0:
368,64,82309,1,0,0:0:0:0:
368,176,82459,1,0,0:0:0:0:
256,176,82609,1,0,0:0:0:0:
368,288,82759,5,0,0:0:0:0:
368,176,82909,1,0,0:0:0:0:
256,176,83059,1,0,0:0:0:0:
256,288,83209,1,0,0:0:0:0:
48,48,83359,5,0,0:0:0:0:
48,320,83509,1,0,0:0:0:0:
128,48,83659,5,0,0:0:0:0:
128,320,83809,1,0,0:0:0:0:
448,48,83959,5,0,0:0:0:0:
448,320,84109,1,0,0:0:0:0:
384,48,84259,5,0,0:0:0:0:
384,320,84409,1,0,0:0:0:0:
176,128,84559,5,0,0:0:0:0:
336,128,84709,1,0,0:0:0:0:
336,272,84859,1,0,0:0:0:0:
176,256,85009,1,0,0:0:0:0:
256,64,85159,5,0,0:0:0:0:
416,192,85309,1,0,0:0:0:0:
256,336,85459,1,0,0:0:0:0:
96,192,85609,1,0,0:0:0:0:
256,192,85759,5,0,0:0:0:0:
96,192,85909,1,0,0:0:0:0:
256,192,86059,5,0,0:0:0:0:
256,64,86209,1,0,0:0:0:0:
256,192,86359,5,0,0:0:0:0:
416,192,86509,1,0,0:0:0:0:
256,192,86659,1,0,0:0:0:0:
256,336,86809,2,0,L|256:64,1,269.999991760254,,,0:0:0:0:
80,176,87859,5,0,0:0:0:0:
176,64,88009,1,0,0:0:0:0:
192,288,88159,1,0,0:0:0:0:
288,176,88309,1,0,0:0:0:0:
416,176,88459,1,0,0:0:0:0:
320,64,88609,1,0,0:0:0:0:
336,288,88759,5,0,0:0:0:0:
224,176,88909,1,0,0:0:0:0:
144,176,89209,2,0,B|97:273|181:390|315:372|372:280|354:200,1,431.999986816407,,,0:0:0:0:
112,256,90259,5,0,0:0:0:0:
176,64,90409,1,0,0:0:0:0:
336,64,90559,1,0,0:0:0:0:
400,256,90709,1,0,0:0:0:0:
480,32,91009,5,0,0:0:0:0:
32,336,91309,1,0,0:0:0:0:
160,320,91759,5,0,0:0:0:0:
160,224,91909,1,0,0:0:0:0:
352,32,92059,1,0,0:0:0:0:
352,128,92209,1,0,0:0:0:0:
32,96,92359,1,0,0:0:0:0:
96,96,92509,1,0,0:0:0:0:
480,288,92659,1,0,0:0:0:0:
416,288,92809,2,0,L|416:176,1,107.999996704102,,,0:0:0:0:
432,352,93109,5,0,0:0:0:0:
256,192,93259,1,0,0:0:0:0:
80,48,93409,5,0,0:0:0:0:
256,192,93559,1,0,0:0:0:0:
432,352,93709,5,0,0:0:0:0:
160,272,94159,5,0,0:0:0:0:
256,80,94309,1,0,0:0:0:0:
366,285,94459,1,0,0:0:0:0:
128,128,94609,1,0,0:0:0:0:
384,128,94759,1,0,0:0:0:0:
256,336,94909,1,0,0:0:0:0:
160,48,95059,1,0,0:0:0:0:
368,48,95209,6,0,L|368:176,1,107.999996704102,,,0:0:0:0:
368,227,95509,5,0,0:0:0:0:
257,268,95659,1,0,0:0:0:0:
235,101,95809,1,0,0:0:0:0:
86,265,95959,1,0,0:0:0:0:
236,101,96109,1,0,0:0:0:0:
368,227,96259,1,0,0:0:0:0:
160,224,96409,2,0,B|76:240|3:151|46:52|129:29|186:60,1,323.999990112305,,,0:0:0:0:
256,192,97459,5,0,0:0:0:0:
256,128,97609,1,0,0:0:0:0:
320,128,97759,1,0,0:0:0:0:
320,192,97909,1,0,0:0:0:0:
208,240,98059,5,0,0:0:0:0:
208,304,98209,1,0,0:0:0:0:
144,304,98359,1,0,0:0:0:0:
144,240,98509,1,0,0:0:0:0:
272,256,98659,5,0,0:0:0:0:
336,256,98809,1,0,0:0:0:0:
336,320,98959,1,0,0:0:0:0:
272,320,99109,1,0,0:0:0:0:
208,176,99259,5,0,0:0:0:0:
144,176,99409,1,0,0:0:0:0:
144,112,99559,1,0,0:0:0:0:
208,112,99709,1,0,0:0:0:0:
288,144,99859,5,0,0:0:0:0:
352,176,100009,1,0,0:0:0:0:
256,256,100159,1,0,0:0:0:0:
368,48,100309,1,0,0:0:0:0:
224,112,100459,1,0,0:0:0:0:
416,208,100609,1,0,0:0:0:0:
224,320,100759,1,0,0:0:0:0:
48,160,100909,1,0,0:0:0:0:
96,128,101359,5,0,0:0:0:0:
160,128,101509,1,0,0:0:0:0:
128,64,101659,1,0,0:0:0:0:
336,128,101809,5,0,0:0:0:0:
400,128,101959,1,0,0:0:0:0:
368,64,102109,1,0,0:0:0:0:
240,320,102259,5,0,0:0:0:0:
240,32,102409,1,0,0:0:0:0:
240,256,102559,5,0,0:0:0:0:
240,96,102709,1,0,0:0:0:0:
240,176,102859,5,0,0:0:0:0:
240,96,103009,1,0,0:0:0:0:
240,256,103159,5,0,0:0:0:0:
240,32,103309,1,0,0:0:0:0:
240,320,103459,1,0,0:0:0:0:
64,240,103759,5,0,0:0:0:0:
128,240,103909,1,0,0:0:0:0:
96,304,104059,1,0,0:0:0:0:
352,64,104209,5,0,0:0:0:0:
416,64,104359,1,0,0:0:0:0:
384,128,104509,1,0,0:0:0:0:
256,192,104659,5,0,0:0:0:0:
112,128,104809,1,0,0:0:0:0:
416,272,104959,1,0,0:0:0:0:
112,64,105109,5,0,0:0:0:0:
416,336,105259,5,0,0:0:0:0:
112,192,105409,1,0,0:0:0:0:
416,208,105559,1,0,0:0:0:0:
256,192,105709,1,0,0:0:0:0:
256,32,105859,6,0,L|256:144,1,107.999996704102,,,0:0:0:0:
128,336,106159,1,0,0:0:0:0:
368,336,106309,1,0,0:0:0:0:
256,144,106459,1,0,0:0:0:0:
112,64,106609,1,0,0:0:0:0:
400,64,106759,1,0,0:0:0:0:
256,272,106909,1,0,0:0:0:0:
128,192,107059,1,0,0:0:0:0:
400,192,107209,1,0,0:0:0:0:
64,192,107359,5,0,0:0:0:0:
464,192,107509,1,0,0:0:0:0:
192,192,107659,1,0,0:0:0:0:
336,192,107809,1,0,0:0:0:0:
256,32,107959,1,0,0:0:0:0:
256,336,108109,2,0,L|256:224,1,107.999996704102,,,0:0:0:0:
256,32,108409,2,0,L|256:256,1,215.999993408203,,,0:0:0:0:
352,336,108859,1,0,0:0:0:0:
48,48,109009,5,0,0:0:0:0:
464,48,109159,5,0,0:0:0:0:
48,336,109309,5,0,0:0:0:0:
464,336,109459,5,0,0:0:0:0:
256,192,109609,6,0,L|256:80,1,107.999996704102,,,0:0:0:0:
48,336,110959,5,0,0:0:0:0:
464,304,111264,5,0,0:0:0:0:
432,32,111567,5,0,0:0:0:0:
48,32,111870,5,0,0:0:0:0:
256,352,112173,5,0,0:0:0:0:
448,160,112476,5,0,0:0:0:0:
272,32,112779,5,0,0:0:0:0:
48,192,113082,5,0,0:0:0:0:
368,192,113385,5,0,0:0:0:0:
96,336,113688,5,0,0:0:0:0:
128,48,113991,5,0,0:0:0:0:
432,48,114294,5,0,0:0:0:0:
448,320,114597,5,0,0:0:0:0:
144,208,114900,5,0,0:0:0:0:
304,320,115203,5,0,0:0:0:0:
336,64,115506,5,0,0:0:0:0:
112,320,115809,5,0,0:0:0:0:
416,224,116112,5,0,0:0:0:0:
128,48,116415,5,0,0:0:0:0:
432,320,116718,5,0,0:0:0:0:
208,112,117021,5,0,0:0:0:0:
192,336,117324,5,0,0:0:0:0:
416,32,117627,5,0,0:0:0:0:
32,128,117930,5,0,0:0:0:0:
464,144,118233,5,0,0:0:0:0:
48,320,118536,5,0,0:0:0:0:
208,32,118839,5,0,0:0:0:0:
432,320,119142,5,0,0:0:0:0:
208,336,119445,5,0,0:0:0:0:
416,32,119748,1,0,0:0:0:0:
112,192,120051,6,0,L|112:32,1,135.000005149842,,,0:0:0:0:
272,160,120657,5,0,0:0:0:0:
416,320,120961,5,0,0:0:0:0:
48,80,121264,5,0,0:0:0:0:
144,304,121567,5,0,0:0:0:0:
144,240,121642,1,0,0:0:0:0:
208,240,121718,1,0,0:0:0:0:
208,304,121794,1,0,0:0:0:0:
176,272,121870,1,0,0:0:0:0:
400,32,122173,5,0,0:0:0:0:
336,320,122476,5,0,0:0:0:0:
144,32,122779,5,0,0:0:0:0:
416,272,123082,5,0,0:0:0:0:
80,304,123385,5,0,0:0:0:0:
256,128,123688,5,0,0:0:0:0:
416,112,123991,5,0,0:0:0:0:
352,112,124067,1,0,0:0:0:0:
352,176,124142,1,0,0:0:0:0:
416,176,124218,1,0,0:0:0:0:
384,144,124294,1,0,0:0:0:0:
80,64,124597,5,0,0:0:0:0:
176,304,124900,6,0,L|176:144,1,135.000005149842,,,0:0:0:0:
64,256,125506,5,0,0:0:0:0:
368,320,125657,5,0,0:0:0:0:
288,336,125885,2,0,B|16:320|64:16|240:16|480:16|480:176|480:336|464:336,2,810.000030899049,0|0|0,0:0|0:0|0:0,0:0:0:0:
288,336,129748,5,0,0:0:0:0:
32,32,130354,6,0,B|480:32|480:352|432:336|32:336|32:240|32:128|112:128,2,911.25003476143,0|0|0,0:0|0:0|0:0,0:0:0:0:
110,128,134597,5,0,0:0:0:0:
48,48,134900,6,0,B|464:48|96:320|64:240|352:16|32:192|80:336|320:336|432:320|480:224|448:48|240:16|224:16,2,843.750032186509,0|0|0,0:0|0:0|0:0,0:0:0:0:
256,192,140049,5,0,0:0:0:0:
480,32,140349,5,0,0:0:0:0:
32,192,140499,5,0,0:0:0:0:
480,336,140649,5,0,0:0:0:0:
256,32,140949,5,0,0:0:0:0:
480,192,141249,5,0,0:0:0:0:
32,336,141549,5,0,0:0:0:0:
256,352,141849,5,0,0:0:0:0:
32,32,142149,5,0,0:0:0:0:
160,256,142299,5,0,0:0:0:0:
448,288,142449,5,0,0:0:0:0:
368,208,142749,5,0,0:0:0:0:
64,160,142899,5,0,0:0:0:0:
352,48,143049,5,0,0:0:0:0:
144,336,143199,5,0,0:0:0:0:
256,64,143349,5,0,0:0:0:0:
432,352,143499,5,0,0:0:0:0:
176,160,143724,5,0,0:0:0:0:
183,164,143799,1,0,0:0:0:0:
191,162,143874,1,0,0:0:0:0:
197,154,143949,1,0,0:0:0:0:
198,141,144024,1,0,0:0:0:0:
195,132,144099,1,0,0:0:0:0:
186,125,144174,1,0,0:0:0:0:
179,124,144249,1,0,0:0:0:0:
173,126,144324,5,0,0:0:0:0:
169,135,144399,1,0,0:0:0:0:
170,145,144474,1,0,0:0:0:0:
175,151,144549,1,0,0:0:0:0:
186,155,144624,1,0,0:0:0:0:
200,152,144699,1,0,0:0:0:0:
203,143,144774,1,0,0:0:0:0:
206,135,144849,1,0,0:0:0:0:
203,125,144924,5,0,0:0:0:0:
196,119,144999,1,0,0:0:0:0:
189,118,145074,1,0,0:0:0:0:
183,119,145149,1,0,0:0:0:0:
179,126,145224,1,0,0:0:0:0:
181,136,145299,1,0,0:0:0:0:
186,148,145374,1,0,0:0:0:0:
200,149,145449,1,0,0:0:0:0:
212,142,145524,5,0,0:0:0:0:
192,128,145599,1,0,0:0:0:0:
215,133,145674,1,0,0:0:0:0:
213,120,145749,1,0,0:0:0:0:
206,117,145824,1,0,0:0:0:0:
202,114,145899,1,0,0:0:0:0:
197,119,145974,1,0,0:0:0:0:
199,132,146049,1,0,0:0:0:0:
207,139,146124,1,0,0:0:0:0:
219,140,146199,1,0,0:0:0:0:
229,133,146274,1,0,0:0:0:0:
231,126,146349,5,0,0:0:0:0:
223,118,146424,1,0,0:0:0:0:
209,117,146499,1,0,0:0:0:0:
199,126,146574,1,0,0:0:0:0:
206,144,146649,1,0,0:0:0:0:
219,145,146724,1,0,0:0:0:0:
229,154,146799,1,0,0:0:0:0:
237,164,146874,1,0,0:0:0:0:
236,178,146949,1,0,0:0:0:0:
229,185,147024,1,0,0:0:0:0:
223,188,147099,5,0,0:0:0:0:
214,183,147174,1,0,0:0:0:0:
216,166,147249,1,0,0:0:0:0:
212,177,147324,1,0,0:0:0:0:
216,167,147399,1,0,0:0:0:0:
224,164,147474,1,0,0:0:0:0:
232,167,147549,1,0,0:0:0:0:
241,179,147624,1,0,0:0:0:0:
244,185,147699,1,0,0:0:0:0:
236,191,147774,1,0,0:0:0:0:
223,191,147849,1,0,0:0:0:0:
245,193,147924,1,0,0:0:0:0:
244,201,147999,1,0,0:0:0:0:
241,210,148074,1,0,0:0:0:0:
229,216,148149,1,0,0:0:0:0:
216,218,148224,1,0,0:0:0:0:
208,214,148299,1,0,0:0:0:0:
198,208,148374,1,0,0:0:0:0:
186,204,148449,1,0,0:0:0:0:
256,64,149274,5,0,0:0:0:0:
272,80,149349,1,0,0:0:0:0:
240,96,149424,1,0,0:0:0:0:
272,112,149499,1,0,0:0:0:0:
240,128,149574,1,0,0:0:0:0:
272,144,149649,1,0,0:0:0:0:
240,160,149724,1,0,0:0:0:0:
272,176,149799,1,0,0:0:0:0:
240,192,149874,5,0,0:0:0:0:
272,208,149949,1,0,0:0:0:0:
240,224,150024,1,0,0:0:0:0:
272,240,150099,1,0,0:0:0:0:
240,256,150174,1,0,0:0:0:0:
272,272,150249,1,0,0:0:0:0:
240,288,150324,1,0,0:0:0:0:
272,304,150399,5,0,0:0:0:0:
240,320,150474,1,0,0:0:0:0:
272,336,150549,1,0,0:0:0:0:
240,352,150624,1,0,0:0:0:0:
272,352,150699,1,0,0:0:0:0:
256,336,150774,1,0,0:0:0:0:
464,192,150849,5,0,0:0:0:0:
240,32,151074,5,0,0:0:0:0:
48,192,151299,5,0,0:0:0:0:
256,336,151599,5,0,0:0:0:0:
272,320,151674,1,0,0:0:0:0:
240,304,151749,1,0,0:0:0:0:
272,288,151824,1,0,0:0:0:0:
240,272,151899,1,0,0:0:0:0:
272,256,151974,1,0,0:0:0:0:
240,240,152049,1,0,0:0:0:0:
272,224,152124,1,0,0:0:0:0:
240,208,152199,1,0,0:0:0:0:
272,192,152274,5,0,0:0:0:0:
240,176,152349,1,0,0:0:0:0:
272,160,152424,1,0,0:0:0:0:
240,144,152499,1,0,0:0:0:0:
272,128,152574,1,0,0:0:0:0:
240,112,152649,1,0,0:0:0:0:
272,96,152724,1,0,0:0:0:0:
256,80,152799,6,0,L|256:272,1,161.999995056153,,,0:0:0:0:
256,352,153249,5,0,0:0:0:0:
304,304,153399,1,0,0:0:0:0:
192,240,153549,1,0,0:0:0:0:
320,176,153699,1,0,0:0:0:0:
176,128,153849,1,0,0:0:0:0:
336,64,153999,1,0,0:0:0:0:
208,96,154149,1,0,0:0:0:0:
352,144,154299,5,0,0:0:0:0:
352,160,154374,1,0,0:0:0:0:
352,176,154449,1,0,0:0:0:0:
208,224,154599,1,0,0:0:0:0:
368,272,154749,1,0,0:0:0:0:
320,256,154899,1,0,0:0:0:0:
208,192,155049,5,0,0:0:0:0:
208,160,155124,1,0,0:0:0:0:
208,128,155199,1,0,0:0:0:0:
208,96,155274,1,0,0:0:0:0:
336,64,155424,5,0,0:0:0:0:
336,96,155499,1,0,0:0:0:0:
336,128,155574,1,0,0:0:0:0:
336,160,155649,1,0,0:0:0:0:
48,192,155799,5,0,0:0:0:0:
48,352,155949,1,0,0:0:0:0:
256,192,156099,1,0,0:0:0:0:
480,192,156249,1,0,0:0:0:0:
480,32,156399,1,0,0:0:0:0:
176,64,156699,5,0,0:0:0:0:
336,128,156849,1,0,0:0:0:0:
96,272,156999,1,0,0:0:0:0:
400,320,157149,1,0,0:0:0:0:
96,272,157299,1,0,0:0:0:0:
336,128,157449,1,0,0:0:0:0:
176,64,157599,2,0,L|176:192,1,107.999996704102,,,0:0:0:0:
176,272,158049,5,0,0:0:0:0:
256,192,158199,1,0,0:0:0:0:
320,112,158349,1,0,0:0:0:0:
176,112,158499,1,0,0:0:0:0:
320,272,158649,1,0,0:0:0:0:
176,96,158799,5,0,0:0:0:0:
176,80,158874,1,0,0:0:0:0:
176,64,158949,1,0,0:0:0:0:
320,288,159099,5,0,0:0:0:0:
320,304,159174,1,0,0:0:0:0:
320,320,159249,1,0,0:0:0:0:
96,192,159399,1,0,0:0:0:0:
400,112,159549,1,0,0:0:0:0:
96,128,159699,1,0,0:0:0:0:
400,176,159849,1,0,0:0:0:0:
256,48,159999,2,0,L|256:160,1,107.999996704102,,,0:0:0:0:
192,256,160449,5,0,0:0:0:0:
320,256,160599,1,0,0:0:0:0:
320,128,160749,1,0,0:0:0:0:
192,128,160899,1,0,0:0:0:0:
256,336,161049,5,0,0:0:0:0:
400,192,161199,1,0,0:0:0:0:
256,48,161349,1,0,0:0:0:0:
112,192,161499,1,0,0:0:0:0:
256,192,161649,5,0,0:0:0:0:
256,48,161799,1,0,0:0:0:0:
256,192,161949,1,0,0:0:0:0:
400,192,162099,1,0,0:0:0:0:
256,192,162249,1,0,0:0:0:0:
256,336,162399,1,0,0:0:0:0:
256,192,162549,5,0,0:0:0:0:
256,224,162624,1,0,0:0:0:0:
256,256,162699,1,0,0:0:0:0:
256,288,162774,1,0,0:0:0:0:
256,320,162849,1,0,0:0:0:0:
144,256,162999,1,0,0:0:0:0:
256,96,163149,1,0,0:0:0:0:
352,256,163299,1,0,0:0:0:0:
336,96,163449,1,0,0:0:0:0:
144,192,163599,1,0,0:0:0:0:
288,256,163749,1,0,0:0:0:0:
256,32,163899,1,0,0:0:0:0:
208,192,164049,5,0,0:0:0:0:
368,160,164199,1,0,0:0:0:0:
144,128,164349,1,0,0:0:0:0:
288,320,164499,1,0,0:0:0:0:
80,128,164649,1,0,0:0:0:0:
352,320,164799,1,0,0:0:0:0:
400,128,165099,2,0,L|400:368,1,215.999993408203,,,0:0:0:0:
400,64,165549,1,0,0:0:0:0:
400,336,165699,1,0,0:0:0:0:
336,64,165849,6,0,L|336:208,1,107.999996704102,,,0:0:0:0:
336,336,166149,1,0,0:0:0:0:
176,336,166299,2,0,L|176:208,1,107.999996704102,,,0:0:0:0:
176,160,166599,1,0,0:0:0:0:
176,32,166749,1,0,0:0:0:0:
32,192,166899,1,0,0:0:0:0:
256,192,167049,1,0,0:0:0:0:
480,192,167199,2,0,L|336:192,1,107.999996704102,,,0:0:0:0:
256,48,167649,5,0,0:0:0:0:
400,304,167799,1,0,0:0:0:0:
128,304,167949,1,0,0:0:0:0:
128,288,168099,5,0,0:0:0:0:
128,272,168174,1,0,0:0:0:0:
128,112,168249,1,0,0:0:0:0:
256,304,168399,1,0,0:0:0:0:
400,112,168549,1,0,0:0:0:0:
256,304,168699,1,0,0:0:0:0:
256,192,168849,1,0,0:0:0:0:
256,64,168999,5,0,0:0:0:0:
256,80,169074,1,0,0:0:0:0:
256,96,169149,1,0,0:0:0:0:
272,304,169299,1,0,0:0:0:0:
400,304,169449,1,0,0:0:0:0:
256,192,169599,2,0,L|256:320,1,107.999996704102,,,0:0:0:0:
192,48,170049,5,0,0:0:0:0:
192,240,170199,5,0,0:0:0:0:
400,240,170274,1,0,0:0:0:0:
400,224,170349,1,0,0:0:0:0:
400,208,170499,1,0,0:0:0:0:
400,48,170649,1,0,0:0:0:0:
192,144,170799,5,0,0:0:0:0:
192,336,170949,1,0,0:0:0:0:
400,336,171099,1,0,0:0:0:0:
400,144,171249,1,0,0:0:0:0:
192,48,171399,1,0,0:0:0:0:
192,144,171549,5,0,0:0:0:0:
192,176,171624,1,0,0:0:0:0:
192,208,171699,2,0,L|192:288,1,53.9999983520508,,,0:0:0:0:
112,160,172449,5,0,0:0:0:0:
240,80,172599,1,0,0:0:0:0:
176,224,172749,1,0,0:0:0:0:
240,224,172899,5,0,0:0:0:0:
240,208,172974,1,0,0:0:0:0:
240,192,173049,1,0,0:0:0:0:
304,224,173199,1,0,0:0:0:0:
368,160,173349,1,0,0:0:0:0:
240,80,173499,1,0,0:0:0:0:
240,288,173649,1,0,0:0:0:0:
240,144,173799,5,0,0:0:0:0:
240,160,173874,1,0,0:0:0:0:
240,176,173949,1,0,0:0:0:0:
240,352,174099,1,0,0:0:0:0:
368,80,174249,1,0,0:0:0:0:
112,80,174399,1,0,0:0:0:0:
480,192,174549,6,0,L|352:192,1,107.999996704102,,,0:0:0:0:
304,192,174849,1,0,0:0:0:0:
256,32,174999,1,0,0:0:0:0:
256,352,175149,1,0,0:0:0:0:
208,192,175299,1,0,0:0:0:0:
32,192,175449,6,0,L|144:192,1,107.999996704102,,,0:0:0:0:
208,192,175749,1,0,0:0:0:0:
32,192,175899,2,0,L|160:192,1,107.999996704102,,,0:0:0:0:
256,192,176199,5,0,0:0:0:0:
256,112,176349,1,0,0:0:0:0:
256,32,176499,1,0,0:0:0:0:
432,192,176649,2,0,L|320:192,1,107.999996704102,,,0:0:0:0:
256,192,176949,1,0,0:0:0:0:
96,320,177249,5,0,0:0:0:0:
240,208,177399,5,0,0:0:0:0:
256,192,177474,1,0,0:0:0:0:
272,176,177549,1,0,0:0:0:0:
432,64,177699,1,0,0:0:0:0:
256,64,177849,1,0,0:0:0:0:
256,320,178149,1,0,0:0:0:0:
256,144,178299,2,0,L|256:272,1,107.999996704102,,,0:0:0:0:
256,320,178599,1,0,0:0:0:0:
336,208,178749,5,0,0:0:0:0:
160,112,178899,1,0,0:0:0:0:
368,32,179049,1,0,0:0:0:0:
160,112,179199,1,0,0:0:0:0:
336,208,179349,1,0,0:0:0:0:
256,320,179499,1,0,0:0:0:0:
160,192,179649,1,0,0:0:0:0:
368,192,179799,5,0,0:0:0:0:
368,208,179874,1,0,0:0:0:0:
368,224,179949,1,0,0:0:0:0:
192,320,180099,1,0,0:0:0:0:
432,192,180249,5,0,0:0:0:0:
128,320,180399,1,0,0:0:0:0:
432,128,180549,5,0,0:0:0:0:
128,256,180699,1,0,0:0:0:0:
368,128,180849,5,0,0:0:0:0:
128,192,180999,1,0,0:0:0:0:
304,128,181149,5,0,0:0:0:0:
128,192,181299,1,0,0:0:0:0:
368,128,181449,5,0,0:0:0:0:
128,256,181599,1,0,0:0:0:0:
432,128,181749,5,0,0:0:0:0:
128,320,181899,1,0,0:0:0:0:
240,128,182049,5,0,0:0:0:0:
240,320,182199,5,0,0:0:0:0:
240,304,182274,1,0,0:0:0:0:
240,288,182349,1,0,0:0:0:0:
240,32,182499,5,0,0:0:0:0:
240,336,182649,1,0,0:0:0:0:
48,192,182799,5,0,0:0:0:0:
416,192,182949,1,0,0:0:0:0:
112,192,183099,5,0,0:0:0:0:
352,192,183249,1,0,0:0:0:0:
176,192,183399,5,0,0:0:0:0:
288,192,183549,1,0,0:0:0:0:
48,192,183699,5,0,0:0:0:0:
416,192,183849,1,0,0:0:0:0:
112,192,183999,5,0,0:0:0:0:
352,192,184149,1,0,0:0:0:0:
224,160,184449,5,0,0:0:0:0:
288,224,184599,1,0,0:0:0:0:
288,160,184749,5,0,0:0:0:0:
224,224,184899,1,0,0:0:0:0:
176,112,185049,5,0,0:0:0:0:
336,272,185199,1,0,0:0:0:0:
336,112,185349,5,0,0:0:0:0:
176,272,185499,1,0,0:0:0:0:
128,192,185649,5,0,0:0:0:0:
256,64,185799,1,0,0:0:0:0:
384,192,185949,5,0,0:0:0:0:
256,320,186099,1,0,0:0:0:0:
112,48,186249,5,0,0:0:0:0:
384,48,186399,1,0,0:0:0:0:
400,336,186549,5,0,0:0:0:0:
112,336,186699,1,0,0:0:0:0:
112,192,186849,5,0,0:0:0:0:
112,48,186999,1,0,0:0:0:0:
256,48,187149,1,0,0:0:0:0:
384,48,187299,5,0,0:0:0:0:
384,80,187374,1,0,0:0:0:0:
384,112,187449,1,0,0:0:0:0:
384,192,187599,5,0,0:0:0:0:
384,336,187749,1,0,0:0:0:0:
256,336,187899,1,0,0:0:0:0:
112,336,188049,5,0,0:0:0:0:
112,304,188124,1,0,0:0:0:0:
112,272,188199,1,0,0:0:0:0:
112,192,188349,5,0,0:0:0:0:
112,160,188424,1,0,0:0:0:0:
112,128,188499,1,0,0:0:0:0:
112,32,188649,5,0,0:0:0:0:
256,32,188799,1,0,0:0:0:0:
384,32,188949,1,0,0:0:0:0:
384,192,189099,5,0,0:0:0:0:
384,224,189174,1,0,0:0:0:0:
384,256,189249,1,0,0:0:0:0:
256,336,189399,5,0,0:0:0:0:
224,256,189549,1,0,0:0:0:0:
304,224,189699,1,0,0:0:0:0:
192,160,189849,1,0,0:0:0:0:
352,128,189999,1,0,0:0:0:0:
144,80,190149,1,0,0:0:0:0:
368,48,190299,1,0,0:0:0:0:
144,80,190449,5,0,0:0:0:0:
352,128,190599,1,0,0:0:0:0:
192,160,190749,1,0,0:0:0:0:
304,224,190899,1,0,0:0:0:0:
224,256,191049,1,0,0:0:0:0:
256,336,191199,5,0,0:0:0:0:
96,32,191649,5,0,0:0:0:0:
416,32,191799,1,0,0:0:0:0:
416,352,191949,1,0,0:0:0:0:
96,352,192099,1,0,0:0:0:0:
144,80,192249,5,0,0:0:0:0:
368,80,192399,1,0,0:0:0:0:
368,304,192549,1,0,0:0:0:0:
144,304,192699,1,0,0:0:0:0:
192,128,192849,5,0,0:0:0:0:
320,128,192999,1,0,0:0:0:0:
320,256,193149,1,0,0:0:0:0:
192,256,193299,1,0,0:0:0:0:
240,176,193449,5,0,0:0:0:0:
272,176,193599,1,0,0:0:0:0:
272,208,193749,1,0,0:0:0:0:
240,208,193899,1,0,0:0:0:0:
320,64,194049,5,0,0:0:0:0:
320,80,194124,1,0,0:0:0:0:
320,96,194199,2,0,L|320:176,1,53.9999983520508,,,0:0:0:0:
256,64,194349,5,0,0:0:0:0:
256,80,194424,1,0,0:0:0:0:
256,96,194499,2,0,L|256:160,1,53.9999983520508,,,0:0:0:0:
192,64,194649,5,0,0:0:0:0:
192,80,194724,1,0,0:0:0:0:
192,96,194799,2,0,L|192:160,1,53.9999983520508,,,0:0:0:0:
256,272,194949,5,0,0:0:0:0:
256,240,195024,1,0,0:0:0:0:
256,208,195099,2,0,L|256:144,1,53.9999983520508,,,0:0:0:0:
256,192,195249,5,0,0:0:0:0:
32,352,195399,5,0,0:0:0:0:
480,352,195549,5,0,0:0:0:0:
480,32,195699,5,0,0:0:0:0:
32,32,195849,5,0,0:0:0:0:
32,192,195999,5,0,0:0:0:0:
256,336,196149,5,0,0:0:0:0:
480,192,196299,5,0,0:0:0:0:
256,32,196449,5,0,0:0:0:0:
32,32,196599,5,0,0:0:0:0:
32,352,196749,5,0,0:0:0:0:
480,352,196899,5,0,0:0:0:0:
480,32,197049,5,0,0:0:0:0:
32,32,197199,5,0,0:0:0:0:
32,352,197349,5,0,0:0:0:0:
480,352,197499,5,0,0:0:0:0:
256,192,197649,5,0,0:0:0:0:
144,320,197799,5,0,0:0:0:0:
352,320,197949,5,0,0:0:0:0:
352,64,198099,5,0,0:0:0:0:
144,48,198249,5,0,0:0:0:0:
144,176,198399,5,0,0:0:0:0:
144,192,198474,1,0,0:0:0:0:
144,208,198549,1,0,0:0:0:0:
256,320,198699,5,0,0:0:0:0:
64,192,198849,1,0,0:0:0:0:
256,320,198999,1,0,0:0:0:0:
256,32,199149,1,0,0:0:0:0:
256,320,199299,1,0,0:0:0:0:
448,192,199449,1,0,0:0:0:0:
256,192,199599,5,0,0:0:0:0:
256,224,199674,1,0,0:0:0:0:
256,256,199749,1,0,0:0:0:0:
256,352,200049,5,0,0:0:0:0:
80,192,200199,5,0,0:0:0:0:
80,192,200274,1,0,0:0:0:0:
80,192,200349,1,0,0:0:0:0:
256,32,200499,5,0,0:0:0:0:
80,192,200649,5,0,0:0:0:0:
256,32,200799,5,0,0:0:0:0:
448,192,200949,5,0,0:0:0:0:
256,32,201099,5,0,0:0:0:0:
432,192,201249,5,0,0:0:0:0:
432,192,201324,1,0,0:0:0:0:
432,192,201399,1,0,0:0:0:0:
256,352,201549,5,0,0:0:0:0:
80,192,201699,5,0,0:0:0:0:
256,352,201849,5,0,0:0:0:0:
256,32,201999,5,0,0:0:0:0:
256,352,202299,1,0,0:0:0:0:
432,192,202449,1,0,0:0:0:0:
368,80,202599,5,0,0:0:0:0:
304,192,202749,1,0,0:0:0:0:
240,304,202899,1,0,0:0:0:0:
176,192,203049,1,0,0:0:0:0:
96,80,203199,1,0,0:0:0:0:
32,192,203349,1,0,0:0:0:0:
96,304,203499,5,0,0:0:0:0:
240,80,203649,1,0,0:0:0:0:
368,304,203799,1,0,0:0:0:0:
464,80,203949,5,0,0:0:0:0:
256,144,204099,1,0,0:0:0:0:
48,208,204249,1,0,0:0:0:0:
256,288,204399,1,0,0:0:0:0:
464,352,204549,1,0,0:0:0:0:
400,192,204699,1,0,0:0:0:0:
320,32,204849,5,0,0:0:0:0:
256,192,204999,1,0,0:0:0:0:
192,352,205149,1,0,0:0:0:0:
128,192,205299,1,0,0:0:0:0:
64,32,205449,1,0,0:0:0:0:
320,192,205599,5,0,0:0:0:0:
480,32,205749,5,0,0:0:0:0:
192,192,205899,1,0,0:0:0:0:
480,352,206049,1,0,0:0:0:0:
192,128,206199,1,0,0:0:0:0:
32,352,206349,1,0,0:0:0:0:
320,128,206499,5,0,0:0:0:0:
480,272,206649,5,0,0:0:0:0:
32,272,206799,1,0,0:0:0:0:
256,32,207249,5,0,0:0:0:0:
96,112,207399,5,0,0:0:0:0:
96,128,207474,1,0,0:0:0:0:
96,144,207549,1,0,0:0:0:0:
256,192,207699,5,0,0:0:0:0:
256,352,207849,1,0,0:0:0:0:
432,304,207999,1,0,0:0:0:0:
432,128,208149,1,0,0:0:0:0:
64,336,208299,5,0,0:0:0:0:
96,304,208374,1,0,0:0:0:0:
128,272,208449,1,0,0:0:0:0:
432,32,208599,5,0,0:0:0:0:
400,64,208674,1,0,0:0:0:0:
368,96,208749,1,0,0:0:0:0:
80,32,208899,5,0,0:0:0:0:
112,64,208974,1,0,0:0:0:0:
144,96,209049,1,0,0:0:0:0:
432,336,209199,5,0,0:0:0:0:
400,304,209274,1,0,0:0:0:0:
368,272,209349,1,0,0:0:0:0:
480,192,209649,5,0,0:0:0:0:
32,192,209799,5,0,0:0:0:0:
64,192,209874,1,0,0:0:0:0:
96,192,209949,1,0,0:0:0:0:
256,32,210099,5,0,0:0:0:0:
480,352,210249,1,0,0:0:0:0:
32,352,210399,1,0,0:0:0:0:
384,112,210549,1,0,0:0:0:0:
144,112,210699,1,0,0:0:0:0:
256,320,210849,1,0,0:0:0:0:
336,160,210999,5,0,0:0:0:0:
320,176,211074,1,0,0:0:0:0:
304,192,211149,1,0,0:0:0:0:
192,160,211299,5,0,0:0:0:0:
208,176,211374,1,0,0:0:0:0:
224,192,211449,1,0,0:0:0:0:
256,256,211599,5,0,0:0:0:0:
256,224,211674,1,0,0:0:0:0:
256,192,211749,1,0,0:0:0:0:
256,32,211899,5,0,0:0:0:0:
256,64,211974,1,0,0:0:0:0:
256,96,212049,5,0,0:0:0:0:
256,320,212199,1,0,0:0:0:0:
144,224,212349,5,0,0:0:0:0:
256,320,212499,1,0,0:0:0:0:
352,160,212649,5,0,0:0:0:0:
256,320,212799,1,0,0:0:0:0:
112,112,212949,5,0,0:0:0:0:
256,320,213099,1,0,0:0:0:0:
368,32,213249,5,0,0:0:0:0:
368,192,213399,1,0,0:0:0:0:
288,112,213549,1,0,0:0:0:0:
448,112,213699,1,0,0:0:0:0:
368,112,213849,1,0,0:0:0:0:
368,352,213999,5,0,0:0:0:0:
368,192,214149,1,0,0:0:0:0:
288,272,214299,1,0,0:0:0:0:
448,272,214449,1,0,0:0:0:0:
368,272,214599,1,0,0:0:0:0:
144,192,214749,5,0,0:0:0:0:
144,352,214899,1,0,0:0:0:0:
224,272,215049,1,0,0:0:0:0:
64,272,215199,1,0,0:0:0:0:
144,272,215349,1,0,0:0:0:0:
144,32,215499,5,0,0:0:0:0:
224,112,215649,1,0,0:0:0:0:
64,112,215799,1,0,0:0:0:0:
144,192,215949,1,0,0:0:0:0:
144,112,216099,2,0,L|144:336,1,215.999993408203,0|0,0:0|0:0,0:0:0:0:
144,320,216399,2,0,L|144:96,1,215.999993408203,,,0:0:0:0:
144,112,216849,5,0,0:0:0:0:
144,144,216924,1,0,0:0:0:0:
144,176,216999,1,0,0:0:0:0:
144,208,217074,1,0,0:0:0:0:
144,240,217149,1,0,0:0:0:0:
144,272,217224,1,0,0:0:0:0:
144,304,217299,1,0,0:0:0:0:
144,336,217374,1,0,0:0:0:0:
64,336,217449,5,0,0:0:0:0:
480,32,217674,5,0,0:0:0:0:
256,192,218049,5,0,0:0:0:0:
32,48,218199,1,0,0:0:0:0:
256,192,218349,5,0,0:0:0:0:
480,352,218499,1,0,0:0:0:0:
256,192,218649,5,0,0:0:0:0:
32,352,218799,1,0,0:0:0:0:
256,192,218949,5,0,0:0:0:0:
480,32,219099,1,0,0:0:0:0:
256,192,219249,5,0,0:0:0:0:
256,32,219399,1,0,0:0:0:0:
256,352,219549,5,0,0:0:0:0:
480,192,219699,1,0,0:0:0:0:
32,192,219849,5,0,0:0:0:0:
256,192,219999,1,0,0:0:0:0:
144,112,220449,5,0,0:0:0:0:
144,256,220599,5,0,0:0:0:0:
144,288,220674,1,0,0:0:0:0:
144,320,220749,1,0,0:0:0:0:
368,320,220899,5,0,0:0:0:0:
368,112,221049,1,0,0:0:0:0:
160,96,221199,5,0,0:0:0:0:
128,64,221274,1,0,0:0:0:0:
96,32,221349,1,0,0:0:0:0:
256,192,221499,5,0,0:0:0:0:
96,336,221649,1,0,0:0:0:0:
256,192,221799,5,0,0:0:0:0:
368,288,221949,1,0,0:0:0:0:
400,320,222024,1,0,0:0:0:0:
432,352,222099,1,0,0:0:0:0:
256,192,222249,5,0,0:0:0:0:
416,64,222399,1,0,0:0:0:0:
256,192,222549,5,0,0:0:0:0:
96,336,222699,1,0,0:0:0:0:
64,32,223749,6,0,L|64:176,1,107.999996704102,0|0,0:0|0:0,0:0:0:0:
448,352,224049,6,0,L|448:224,1,107.999996704102,,,0:0:0:0:
64,352,224349,6,0,L|64:240,1,107.999996704102,,,0:0:0:0:
448,32,224649,6,0,L|448:144,1,107.999996704102,0|0,0:0|0:0,0:0:0:0:
32,192,224949,6,0,L|144:192,1,107.999996704102,,,0:0:0:0:
480,192,225249,6,0,L|352:192,1,107.999996704102,,,0:0:0:0:
256,32,225549,6,0,L|256:176,1,107.999996704102,,,0:0:0:0:
256,352,225849,6,0,L|256:224,1,107.999996704102,,,0:0:0:0:
256,192,226149,5,0,0:0:0:0:
48,80,226299,1,0,0:0:0:0:
464,288,226449,1,0,0:0:0:0:
112,112,226599,5,0,0:0:0:0:
400,256,226749,1,0,0:0:0:0:
48,160,226899,5,0,0:0:0:0:
464,208,227049,1,0,0:0:0:0:
256,192,227199,5,0,0:0:0:0:
64,336,227649,5,0,0:0:0:0:
64,224,227799,1,0,0:0:0:0:
176,224,227949,1,0,0:0:0:0:
176,336,228099,1,0,0:0:0:0:
128,160,228249,5,0,0:0:0:0:
256,160,228399,1,0,0:0:0:0:
256,272,228549,1,0,0:0:0:0:
128,272,228699,1,0,0:0:0:0:
448,32,228849,5,0,0:0:0:0:
336,32,228999,1,0,0:0:0:0:
336,160,229149,1,0,0:0:0:0:
448,160,229299,1,0,0:0:0:0:
384,96,229449,5,0,0:0:0:0:
272,96,229599,1,0,0:0:0:0:
272,224,229749,1,0,0:0:0:0:
160,48,230049,5,0,0:0:0:0:
256,352,230199,1,0,0:0:0:0:
336,48,230349,1,0,0:0:0:0:
80,240,230499,1,0,0:0:0:0:
432,240,230649,1,0,0:0:0:0:
64,128,230799,1,0,0:0:0:0:
448,128,230949,1,0,0:0:0:0:
256,352,231099,5,0,0:0:0:0:
256,32,231249,1,0,0:0:0:0:
336,352,231399,1,0,0:0:0:0:
176,352,231549,1,0,0:0:0:0:
176,112,231699,1,0,0:0:0:0:
336,112,231849,1,0,0:0:0:0:
256,272,231999,1,0,0:0:0:0:
64,320,232149,1,0,0:0:0:0:
464,320,232299,1,0,0:0:0:0:
256,48,232449,2,0,L|256:208,1,107.999996704102,,,0:0:0:0:
288,224,232749,5,0,0:0:0:0:
192,288,232899,1,0,0:0:0:0:
336,368,233049,1,0,0:0:0:0:
192,288,233199,1,0,0:0:0:0:
288,224,233349,1,0,0:0:0:0:
256,48,233499,5,0,0:0:0:0:
80,64,233649,5,0,0:0:0:0:
96,128,233799,1,0,0:0:0:0:
256,48,233949,5,0,0:0:0:0:
432,144,234099,1,0,0:0:0:0:
416,208,234249,1,0,0:0:0:0:
144,272,234399,1,0,0:0:0:0:
160,336,234549,1,0,0:0:0:0:
256,48,234699,1,0,0:0:0:0:
384,288,234849,1,0,0:0:0:0:
352,352,234999,5,0,0:0:0:0:
336,336,235074,1,0,0:0:0:0:
320,320,235149,1,0,0:0:0:0:
256,256,235299,5,0,0:0:0:0:
224,224,235374,1,0,0:0:0:0:
192,192,235449,1,0,0:0:0:0:
128,128,235599,5,0,0:0:0:0:
80,80,235674,1,0,0:0:0:0:
32,32,235749,2,0,L|176:32,1,107.999996704102,,,0:0:0:0:
256,48,236049,5,0,0:0:0:0:
256,192,236199,1,0,0:0:0:0:
32,336,236349,5,0,0:0:0:0:
256,192,236499,1,0,0:0:0:0:
480,32,236649,5,0,0:0:0:0:
256,192,236799,1,0,0:0:0:0:
320,64,237249,5,0,0:0:0:0:
480,64,237399,1,0,0:0:0:0:
400,192,237549,1,0,0:0:0:0:
32,352,237699,5,0,0:0:0:0:
192,352,237849,1,0,0:0:0:0:
112,192,237999,1,0,0:0:0:0:
256,32,238149,5,0,0:0:0:0:
256,352,238299,1,0,0:0:0:0:
176,160,238449,5,0,0:0:0:0:
336,224,238599,1,0,0:0:0:0:
336,160,238749,5,0,0:0:0:0:
176,224,238899,1,0,0:0:0:0:
256,288,239049,5,0,0:0:0:0:
256,96,239199,2,0,L|256:224,1,107.999996704102,,,0:0:0:0:
288,352,239649,5,0,0:0:0:0:
480,352,239799,1,0,0:0:0:0:
384,192,239949,1,0,0:0:0:0:
32,32,240099,5,0,0:0:0:0:
224,32,240249,1,0,0:0:0:0:
128,192,240399,1,0,0:0:0:0:
256,32,240549,5,0,0:0:0:0:
256,352,240699,1,0,0:0:0:0:
80,80,240849,5,0,0:0:0:0:
432,288,240999,1,0,0:0:0:0:
432,80,241149,5,0,0:0:0:0:
80,288,241299,1,0,0:0:0:0:
480,32,241449,5,0,0:0:0:0:
32,336,241599,1,0,0:0:0:0:
128,336,242049,5,0,0:0:0:0:
384,336,242199,1,0,0:0:0:0:
128,32,242349,5,0,0:0:0:0:
384,336,242499,1,0,0:0:0:0:
128,336,242649,1,0,0:0:0:0:
384,32,242799,1,0,0:0:0:0:
176,112,242949,5,0,0:0:0:0:
336,272,243099,1,0,0:0:0:0:
336,112,243249,5,0,0:0:0:0:
176,272,243399,1,0,0:0:0:0:
128,64,243549,5,0,0:0:0:0:
384,320,243699,1,0,0:0:0:0:
384,64,243849,5,0,0:0:0:0:
128,320,243999,1,0,0:0:0:0:
256,64,244299,5,0,0:0:0:0:
256,96,244374,1,0,0:0:0:0:
256,128,244449,5,0,0:0:0:0:
256,192,244599,5,0,0:0:0:0:
256,224,244674,1,0,0:0:0:0:
256,256,244749,1,0,0:0:0:0:
384,160,244899,5,0,0:0:0:0:
352,160,244974,1,0,0:0:0:0:
320,160,245049,1,0,0:0:0:0:
128,160,245199,5,0,0:0:0:0:
160,160,245274,1,0,0:0:0:0:
192,160,245349,1,0,0:0:0:0:
128,32,245499,5,0,0:0:0:0:
160,64,245574,1,0,0:0:0:0:
192,96,245649,1,0,0:0:0:0:
320,96,245799,5,0,0:0:0:0:
352,64,245874,1,0,0:0:0:0:
384,32,245949,1,0,0:0:0:0:
192,224,246099,5,0,0:0:0:0:
160,256,246174,1,0,0:0:0:0:
128,288,246249,1,0,0:0:0:0:
320,224,246399,5,0,0:0:0:0:
352,256,246474,1,0,0:0:0:0:
384,288,246549,1,0,0:0:0:0:
32,160,246699,5,0,0:0:0:0:
64,160,246774,1,0,0:0:0:0:
96,160,246849,1,0,0:0:0:0:
384,160,246999,5,0,0:0:0:0:
432,160,247074,1,0,0:0:0:0:
480,160,247149,1,0,0:0:0:0:
256,32,247299,5,0,0:0:0:0:
256,80,247374,1,0,0:0:0:0:
256,128,247449,1,0,0:0:0:0:
256,352,247599,5,0,0:0:0:0:
256,304,247674,1,0,0:0:0:0:
256,256,247749,1,0,0:0:0:0:
256,160,247899,5,0,0:0:0:0:
112,192,248199,5,0,0:0:0:0:
256,64,248349,1,0,0:0:0:0:
400,192,248499,1,0,0:0:0:0:
256,320,248649,1,0,0:0:0:0:
256,192,248799,5,0,0:0:0:0:
32,32,248949,5,0,0:0:0:0:
480,352,249099,1,0,0:0:0:0:
256,192,249249,5,0,0:0:0:0:
48,48,254424,5,0,0:0:0:0:
256,48,254611,5,0,0:0:0:0:
256,80,254705,1,0,0:0:0:0:
256,112,254799,1,0,0:0:0:0:
256,288,254986,5,0,0:0:0:0:
48,240,255174,1,0,0:0:0:0:
256,224,255361,1,0,0:0:0:0:
480,176,255549,1,0,0:0:0:0:
256,160,255736,1,0,0:0:0:0:
48,96,255924,1,0,0:0:0:0:
256,288,256111,5,0,0:0:0:0:
256,256,256205,1,0,0:0:0:0:
256,224,256299,1,0,0:0:0:0:
256,96,256486,5,0,0:0:0:0:
432,352,256674,1,0,0:0:0:0:
80,352,256861,1,0,0:0:0:0:
256,32,257049,1,0,0:0:0:0:
256,352,257236,1,0,0:0:0:0:
480,32,257424,1,0,0:0:0:0:
32,32,257611,5,0,0:0:0:0:
32,64,257705,1,0,0:0:0:0:
32,96,257799,1,0,0:0:0:0:
256,192,257986,5,0,0:0:0:0:
480,352,258174,1,0,0:0:0:0:
480,32,258361,1,0,0:0:0:0:
32,192,258549,1,0,0:0:0:0:
480,192,258736,1,0,0:0:0:0:
96,192,258924,1,0,0:0:0:0:
416,192,259111,5,0,0:0:0:0:
384,192,259205,1,0,0:0:0:0:
352,192,259299,1,0,0:0:0:0:
288,128,259486,1,0,0:0:0:0:
224,288,259674,1,0,0:0:0:0:
160,48,259861,1,0,0:0:0:0:
64,320,260049,1,0,0:0:0:0:
160,48,260236,1,0,0:0:0:0:
224,288,260424,1,0,0:0:0:0:
288,128,260611,5,0,0:0:0:0:
288,160,260705,1,0,0:0:0:0:
288,192,260799,1,0,0:0:0:0:
80,256,260986,5,0,0:0:0:0:
448,192,261174,1,0,0:0:0:0:
80,128,261361,1,0,0:0:0:0:
448,64,261549,1,0,0:0:0:0:
80,128,261736,1,0,0:0:0:0:
448,192,261924,1,0,0:0:0:0:
64,336,262111,5,0,0:0:0:0:
80,320,262205,1,0,0:0:0:0:
96,304,262299,1,0,0:0:0:0:
384,96,262486,5,0,0:0:0:0:
400,80,262580,1,0,0:0:0:0:
416,64,262674,1,0,0:0:0:0:
256,192,262861,5,0,0:0:0:0:
256,352,263049,1,0,0:0:0:0:
64,192,263236,1,0,0:0:0:0:
464,192,263424,1,0,0:0:0:0:
256,32,263611,5,0,0:0:0:0:
256,64,263705,1,0,0:0:0:0:
256,96,263799,1,0,0:0:0:0:
480,352,263986,5,0,0:0:0:0:
32,336,264174,1,0,0:0:0:0:
32,32,264361,1,0,0:0:0:0:
480,32,264549,1,0,0:0:0:0:
64,192,264736,1,0,0:0:0:0:
464,192,264924,1,0,0:0:0:0:
256,352,265111,5,0,0:0:0:0:
64,192,265299,1,0,0:0:0:0:
256,32,265486,1,0,0:0:0:0:
464,192,265674,1,0,0:0:0:0:
256,352,265861,1,0,0:0:0:0:
64,192,266049,1,0,0:0:0:0:
256,32,266236,1,0,0:0:0:0:
48,352,266424,5,0,0:0:0:0:
48,320,266517,1,0,0:0:0:0:
48,288,266611,1,0,0:0:0:0:
480,32,266799,5,0,0:0:0:0:
48,352,266986,1,0,0:0:0:0:
256,32,267174,1,0,0:0:0:0:
48,352,267361,1,0,0:0:0:0:
48,32,267549,1,0,0:0:0:0:
480,336,267736,1,0,0:0:0:0:
96,64,267924,5,0,0:0:0:0:
80,48,268017,1,0,0:0:0:0:
64,32,268111,1,0,0:0:0:0:
480,96,268299,5,0,0:0:0:0:
32,192,268486,1,0,0:0:0:0:
480,256,268674,1,0,0:0:0:0:
32,336,268861,1,0,0:0:0:0:
480,256,269049,1,0,0:0:0:0:
32,192,269236,1,0,0:0:0:0:
480,64,269424,5,0,0:0:0:0:
480,96,269517,1,0,0:0:0:0:
480,128,269611,1,0,0:0:0:0:
32,80,269799,5,0,0:0:0:0:
480,192,269986,1,0,0:0:0:0:
32,304,270174,1,0,0:0:0:0:
480,320,270361,1,0,0:0:0:0:
32,240,270549,1,0,0:0:0:0:
480,160,270736,1,0,0:0:0:0:
96,80,270924,5,0,0:0:0:0:
96,112,271017,1,0,0:0:0:0:
96,144,271111,1,0,0:0:0:0:
416,208,271299,5,0,0:0:0:0:
224,288,271486,1,0,0:0:0:0:
256,352,271674,1,0,0:0:0:0:
480,32,271861,1,0,0:0:0:0:
32,32,272049,1,0,0:0:0:0:
480,128,272236,1,0,0:0:0:0:
32,304,272424,5,0,0:0:0:0:
480,288,272611,5,0,0:0:0:0:
480,256,272705,1,0,0:0:0:0:
480,224,272799,1,0,0:0:0:0:
32,224,272986,5,0,0:0:0:0:
480,80,273174,1,0,0:0:0:0:
160,32,273361,1,0,0:0:0:0:
144,352,273549,1,0,0:0:0:0:
336,32,273736,1,0,0:0:0:0:
432,352,273924,1,0,0:0:0:0:
256,32,274111,5,0,0:0:0:0:
256,64,274205,1,0,0:0:0:0:
256,96,274299,1,0,0:0:0:0:
256,352,274486,1,0,0:0:0:0:
480,256,274674,1,0,0:0:0:0:
32,128,274861,1,0,0:0:0:0:
480,112,275049,1,0,0:0:0:0:
128,352,275236,1,0,0:0:0:0:
480,32,275424,1,0,0:0:0:0:
256,192,275611,5,0,0:0:0:0:
32,352,275799,1,0,0:0:0:0:
480,352,275986,1,0,0:0:0:0:
256,192,276174,5,0,0:0:0:0:
32,32,276361,1,0,0:0:0:0:
256,192,276549,1,0,0:0:0:0:
480,192,276736,5,0,0:0:0:0:
32,192,276924,1,0,0:0:0:0:
256,192,277111,1,0,0:0:0:0:
256,352,277299,5,0,0:0:0:0:
256,192,277486,1,0,0:0:0:0:
256,32,277674,1,0,0:0:0:0:
32,352,277861,5,0,0:0:0:0:
480,352,278049,1,0,0:0:0:0:
480,32,278236,1,0,0:0:0:0:
32,32,278424,1,0,0:0:0:0:
